» » Randy Vanwarmer - Warmer
Randy Vanwarmer - Warmer FLAC album

Tracklist

1 Losing Out On Love 3:04
2 Just When I Needed You Most 3:59
3 Your Light 4:02
4 Gotta Get Out Of Here 3:01
5 Convincing Lies 3:31
6 Call Me 4:24
7 Forever Loving You 3:19
8 Deeper And Deeper 3:47
9 I Could Sing 3:17
10 The One Who Loves You 4:34

Companies, etc.

  • Phonographic Copyright (p) – Bearsville Records
  • Copyright (c) – Bearsville Records
  • Published By – Fourth Floor Music, Inc.
  • Recorded At – Creative Sound Workshop
  • Recorded At – Scorpio Studios
  • Recorded At – Bearsville Studios
  • Recorded At – Power Station
  • Mastered At – Masterdisk
  • Manufactured By – Victor Musical Industries, Inc.
  • Distributed By – Victor Musical Industries, Inc.
  • Licensed From – Bearsville Records

Credits

  • Art Direction – Desmond Strobel
  • Mastered By – Bob Ludwig
  • Photography By, Design [Photographic] – Aaron Rapoport
  • Producer – Del Newman
  • Producer [Additional Production] – Ian Kimmet
  • Producer [Additional Production], Remix, Engineer – John Holbrook
  • Written-By – Randy Vanwarmer

Notes

First CD issue

Barcode and Other Identifiers

  • Barcode (Text): 4 988002-157648
  • Rights Society: JASRAC

Other versions

Category Artist Title (Format) Label Category Country Year
BRK 6988 Randy Vanwarmer Warmer ‎(LP, Album) Bearsville BRK 6988 US 1979
QBR 6988 Randy Vanwarmer Warmer ‎(LP, Album) Bearsville QBR 6988 Canada 1979
BRK 6988 Randy Vanwarmer Warmer ‎(LP, Album) Bearsville BRK 6988 Sweden 1979
67362 Randy Vanwarmer Warmer ‎(LP, Album) Carrere 67362 France 1979
25AP 1735 Randy Vanwarmer Warmer ‎(LP, Album, Promo) Bearsville, CBS/Sony 25AP 1735 Japan 1979


Randy Vanwarmer - Warmer FLAC album

Musician performer: Randy Vanwarmer

Title: Warmer

Country: US

Date of release: 1988

Style: Acoustic, Easy Listening

Genre: Jazz / Rock / Funk & Soul / Blues / Pop

Size FLAC: 1279 mb

Rating: 4.3 / 5

Votes: 475

Other Formats: AA VOX MPC DXD MP2 MIDI MP1

Related to Randy Vanwarmer - Warmer FLAC Albums

porosh
foobar2000 1.3.17 / Dynamic Range Meter 1.1.1log date: 2018-10-17 19:39:47--------------------------------------------------------------------------------Analyzed: Randy VanWarmer / Warmer [JP 1988 CD]--------------------------------------------------------------------------------DR Peak RMS Duration Track--------------------------------------------------------------------------------DR12 0.00 dB -14.32 dB 3:08 01-Losing Out On LoveDR12 -0.94 dB -16.86 dB 4:02 02-Just When I Needed You MostDR13 0.00 dB -17.29 dB 4:04 03-Your LightDR13 0.00 dB -15.49 dB 3:04 04-Gotta Get Out Of HereDR13 0.00 dB -15.28 dB 3:35 05-Convincing LiesDR13 0.00 dB -16.36 dB 4:27 06-Call MeDR14 0.00 dB -16.21 dB 3:21 07-Forever Loving YouDR14 0.00 dB -16.80 dB 3:50 08-Deeper And DeeperDR12 0.00 dB -14.66 dB 3:18 09-I Could SingDR11 -0.94 dB -16.68 dB 4:37 10-The One Who Loves You--------------------------------------------------------------------------------Number of tracks: 10Official DR value: DR13Samplerate: 44100 HzChannels: 2Bits per sample: 16Bitrate: 788 kbpsCodec: ALAC================================================================================
porosh
foobar2000 1.3.17 / Dynamic Range Meter 1.1.1log date: 2018-10-17 19:39:47--------------------------------------------------------------------------------Analyzed: Randy VanWarmer / Warmer [JP 1988 CD]--------------------------------------------------------------------------------DR Peak RMS Duration Track--------------------------------------------------------------------------------DR12 0.00 dB -14.32 dB 3:08 01-Losing Out On LoveDR12 -0.94 dB -16.86 dB 4:02 02-Just When I Needed You MostDR13 0.00 dB -17.29 dB 4:04 03-Your LightDR13 0.00 dB -15.49 dB 3:04 04-Gotta Get Out Of HereDR13 0.00 dB -15.28 dB 3:35 05-Convincing LiesDR13 0.00 dB -16.36 dB 4:27 06-Call MeDR14 0.00 dB -16.21 dB 3:21 07-Forever Loving YouDR14 0.00 dB -16.80 dB 3:50 08-Deeper And DeeperDR12 0.00 dB -14.66 dB 3:18 09-I Could SingDR11 -0.94 dB -16.68 dB 4:37 10-The One Who Loves You--------------------------------------------------------------------------------Number of tracks: 10Official DR value: DR13Samplerate: 44100 HzChannels: 2Bits per sample: 16Bitrate: 788 kbpsCodec: ALAC================================================================================