» » Natalie Cole - I'm Ready
Natalie Cole - I'm Ready FLAC album

Tracklist Hide Credits

1 Too Much Mister 4:50
2 I Won't Deny You 3:59
3 I'm Ready 4:09
4 Keep It On The Outside 4:21
5 Time (Heals All Wounds)
Producer – Chuck Bynum*
5:25
6 (I'm Coming) Straight From The Heart 5:11
7 Where's Your Angel 3:55
8 I'm Your Mirror 5:01
Previously Unreleased Tracks
9 Winner (Take All) 5:11
10 Azz Iz 5:41
11 Movin' On 5:23
12 How Can You Stop 4:43

Companies, etc.

  • Made By – Disctronics B

Credits

  • Producer – Chuck Jackson (tracks: 1 to 4, 6), Marvin Yancy (tracks: 1 to 4, 6), Stanley Clarke (tracks: 7 to 12)
  • Reissue Producer [CD] – Didier C. Deutsch

Notes

Made in Australia
Originally released in 1983

Barcode and Other Identifiers

  • Barcode (Scanned): 9399747183123
  • Matrix / Runout: 471831.2 #01

Other versions

Category Artist Title (Format) Label Category Country Year
FE 38280 Natalie Cole I'm Ready ‎(LP, Album) Epic FE 38280 US 1983
EPC 40 -25039 Natalie Cole I'm Ready ‎(Cass, Album) Epic EPC 40 -25039 UK 1983
FE 38280 Natalie Cole I'm Ready ‎(LP, Album) Epic FE 38280 Canada 1983
SMCR 5141 Natalie Cole I'm Ready ‎(CD, Album, RE) SoulMusic Records SMCR 5141 Europe 2016
ET 52732 Natalie Cole I'm Ready ‎(Cass, Album, Dol) Epic ET 52732 US 1992


Natalie Cole - I'm Ready FLAC album

Musician performer: Natalie Cole

Title: I'm Ready

Country: US

Date of release: 1992

Style: Soul, Funk, Disco

Genre: Funk & Soul

Size FLAC: 1818 mb

Rating: 4.7 / 5

Votes: 469

Other Formats: WAV MP4 ADX MOD MP1 MPC RA

Related to Natalie Cole - I'm Ready FLAC Albums

Anaragelv
foobar2000 1.3.17 / Dynamic Range Meter 1.1.1log date: 2018-06-15 18:09:13--------------------------------------------------------------------------------Analyzed: Natalie Cole / I'm Ready--------------------------------------------------------------------------------DR Peak RMS Duration Track--------------------------------------------------------------------------------DR12 -0.66 dB -15.09 dB 4:54 01-Too Much MisterDR12 -0.71 dB -15.47 dB 4:00 02-I Won't Deny YouDR13 -3.35 dB -19.17 dB 4:11 03-I'm ReadyDR13 -3.88 dB -20.00 dB 4:24 04-Keep It On The OutsideDR15 -4.20 dB -20.68 dB 5:28 05-Time (Heals All Wounds)DR14 -3.19 dB -19.69 dB 5:12 06-(I'm Coming) Straight From The HeartDR13 -3.92 dB -20.32 dB 3:58 07-Where's Your Angel?DR14 -6.11 dB -24.12 dB 5:05 08-I'm Your MirrorDR17 -2.49 dB -21.38 dB 5:13 09-Winner (Take All)DR16 -1.92 dB -21.20 dB 5:43 10-Azz IzDR17 -0.40 dB -19.24 dB 5:26 11-Movin' OnDR15 -0.40 dB -18.63 dB 4:44 12-How Can You Stop?--------------------------------------------------------------------------------Number of tracks: 12Official DR value: DR14Samplerate: 44100 HzChannels: 2Bits per sample: 16Bitrate: 792 kbpsCodec: ALAC================================================================================
Anaragelv
foobar2000 1.3.17 / Dynamic Range Meter 1.1.1log date: 2018-06-15 18:09:13--------------------------------------------------------------------------------Analyzed: Natalie Cole / I'm Ready--------------------------------------------------------------------------------DR Peak RMS Duration Track--------------------------------------------------------------------------------DR12 -0.66 dB -15.09 dB 4:54 01-Too Much MisterDR12 -0.71 dB -15.47 dB 4:00 02-I Won't Deny YouDR13 -3.35 dB -19.17 dB 4:11 03-I'm ReadyDR13 -3.88 dB -20.00 dB 4:24 04-Keep It On The OutsideDR15 -4.20 dB -20.68 dB 5:28 05-Time (Heals All Wounds)DR14 -3.19 dB -19.69 dB 5:12 06-(I'm Coming) Straight From The HeartDR13 -3.92 dB -20.32 dB 3:58 07-Where's Your Angel?DR14 -6.11 dB -24.12 dB 5:05 08-I'm Your MirrorDR17 -2.49 dB -21.38 dB 5:13 09-Winner (Take All)DR16 -1.92 dB -21.20 dB 5:43 10-Azz IzDR17 -0.40 dB -19.24 dB 5:26 11-Movin' OnDR15 -0.40 dB -18.63 dB 4:44 12-How Can You Stop?--------------------------------------------------------------------------------Number of tracks: 12Official DR value: DR14Samplerate: 44100 HzChannels: 2Bits per sample: 16Bitrate: 792 kbpsCodec: ALAC================================================================================